All times are UTC [ DST ]




Post new topic Reply to topic  [ 1 post ] 
  Print view

Manoranjan (1974) 480p - HD-DVDRip - AVC - AAC-Bollywooda2z
Author Message
PostPosted: Fri Aug 10, 2018 6:19 pm 
Online

Joined: Tue Jul 03, 2012 3:31 pm
Posts: 22392
[CENTER]Image[/CENTER]

[CENTER]
Code:
General
Complete name               : E:\Download C 2\1974\Manoranjan.mp4
Format                      : MPEG-4
Format profile              : Base Media
Codec ID                    : isom (isom)
File size                   : 1.52 GiB
Duration                    : 2 h 38 min
Overall bit rate mode       : Variable
Overall bit rate            : 1 369 kb/s
Encoded date                : UTC 2016-01-26 19:01:05
Tagged date                 : UTC 2016-01-26 19:01:05

Video
ID                          : 1
Format                      : AVC
Format/Info                 : Advanced Video Codec
Format profile              : Main@L3.1
Format settings, CABAC      : Yes
Format settings, RefFrames  : 8 frames
Codec ID                    : avc1
Codec ID/Info               : Advanced Video Coding
Duration                    : 2 h 38 min
Bit rate                    : 1 300 kb/s
Maximum bit rate            : 4 632 kb/s
Width                       : 704 pixels
Height                      : 480 pixels
Display aspect ratio        : 1.85:1
Frame rate mode             : Constant
Frame rate                  : 29.970 (30000/1001) FPS
Standard                    : NTSC
Color space                 : YUV
Chroma subsampling          : 4:2:0
Bit depth                   : 8 bits
Scan type                   : Progressive
Bits/(Pixel*Frame)          : 0.128
Stream size                 : 1.44 GiB (95%)
Writing library             : x264 core 146 r2538 121396c
Encoding settings           : cabac=1 / ref=8 / deblock=1:-1:-1 / analyse=0x1:0x131 / me=umh / subme=9 / psy=1 / psy_rd=1.00:0.15 / mixed_ref=1 / me_range=16 / chroma_me=1 / trellis=2 / 8x8dct=0 / cqm=0 / deadzone=21,11 / fast_pskip=1 / chroma_qp_offset=-3 / threads=24 / lookahead_threads=2 / sliced_threads=0 / nr=0 / decimate=1 / interlaced=0 / bluray_compat=0 / constrained_intra=0 / bframes=3 / b_pyramid=2 / b_adapt=2 / b_bias=0 / direct=3 / weightb=1 / open_gop=0 / weightp=2 / keyint=300 / keyint_min=29 / scenecut=40 / intra_refresh=0 / rc_lookahead=60 / rc=2pass / mbtree=1 / bitrate=1300 / ratetol=1.0 / qcomp=0.60 / qpmin=0 / qpmax=69 / qpstep=4 / cplxblur=20.0 / qblur=0.5 / vbv_maxrate=4000 / vbv_bufsize=4000 / nal_hrd=none / filler=0 / ip_ratio=1.40 / aq=1:1.00
Encoded date                : UTC 2016-01-20 03:08:15
Tagged date                 : UTC 2016-01-26 19:01:37

Audio
ID                          : 2
Format                      : AAC
Format/Info                 : Advanced Audio Codec
Format profile              : LC
Codec ID                    : 40
Duration                    : 2 h 38 min
Bit rate mode               : Variable
Bit rate                    : 64.0 kb/s
Maximum bit rate            : 73.3 kb/s
Channel(s)                  : 2 channels
Channel positions           : Front: L R
Sampling rate               : 48.0 kHz
Frame rate                  : 46.875 FPS (1024 SPF)
Compression mode            : Lossy
Stream size                 : 72.6 MiB (5%)
Language                    : Hindi
Encoded date                : UTC 2016-01-20 03:10:22
Tagged date                 : UTC 2016-01-26 19:01:37



Image
SINGLE DIRECT FAST LINKS

Code:
http://www.heroupload.us/2d2985ced3cf5600/Manoranjan.mp4


Code:
http://filefloater.com/1Kas/Manoranjan.mp4


[/CENTER]
[CENTER]Buy Premium From My Links & Support Me[/CENTER]


Top
 Profile  
 

Display posts from previous:  Sort by  
Post new topic Reply to topic  [ 1 post ] 

All times are UTC [ DST ]

 


Related Topics

Who is online

Users browsing this forum: No registered users and 6 guests


You cannot post new topics in this forum
You cannot reply to topics in this forum
You cannot edit your posts in this forum
You cannot delete your posts in this forum
You cannot post attachments in this forum

Search for:
Jump to:  
cron