All times are UTC [ DST ]




Post new topic Reply to topic  [ 1 post ] 
  Print view

Padman (2018) 720p - pDVDRip - x264 - MP3 - M2Tv
Author Message
PostPosted: Sat Feb 17, 2018 1:34 am 
Offline

Joined: Tue Jul 03, 2012 3:31 pm
Posts: 20733
[CENTER]Image[/CENTER]


[CENTER]

Code:
Ratings: 8.6/10

Genere: Biography, Comedy, Drama

General
Format : Matroska
File size : 969 MiB
Duration : 2 h 12 min
Overall bit rate : 1 025 kb/s

Video
ID : 1
Format : AVC
Codec ID : V_MPEG4/ISO/AVC
Duration : 2 h 12 min
Bit rate : 911 kb/s
Width : 1 280 pixels
Height : 544 pixels
Display aspect ratio : 2.35:1
Frame rate mode : Constant
Frame rate : 25.000 FPS
Stream size : 862 MiB (89%)
Title : Mafiaking
Language : Hindi
Default : Yes
Forced : No

Audio
ID : 2
Format : MPEG Audio
Codec ID/Hint : MP3
Duration : 2 h 12 min
Bit rate : 112 kb/s
Channel(s) : 2 channels
Stream size : 106 MiB (11%)
Title : Mafiaking
Language : Hindi
Default : Yes
Forced : No


ImageImageImageImageImageImageImageImage


SINGLE DIRECT FAST LINKS
Code:
https://www.heroupload.com/b1651f64d4608649/Padman.2018.720p.PreDVD-Rip.x264.MP3.Mafiaking-M2Tv.mkv


Code:
http://filefloater.com/77X/Padman.2018.720p.PreDVD-Rip.x264.MP3.Mafiaking-M2Tv.mkv


[/CENTER]


Top
 Profile  
 

Display posts from previous:  Sort by  
Post new topic Reply to topic  [ 1 post ] 

All times are UTC [ DST ]

 


Related Topics

Who is online

Users browsing this forum: No registered users and 6 guests


You cannot post new topics in this forum
You cannot reply to topics in this forum
You cannot edit your posts in this forum
You cannot delete your posts in this forum
You cannot post attachments in this forum

Search for:
Jump to:  
cron