All times are UTC [ DST ]




Post new topic Reply to topic  [ 1 post ] 
  Print view

Sabse Bada Zero - Luck Unnodu (2018) Hindi - 720p - WEB-HD -
Author Message
PostPosted: Tue Feb 20, 2018 2:45 am 
Offline

Joined: Tue Jul 03, 2012 3:31 pm
Posts: 20311
[CENTER]Image[/CENTER]

[CENTER]

Code:
General
Format                      : MPEG-4
Format profile              : Base Media / Version 2
Codec ID                    : mp42 (isom/mp42)
File size                   : 707 MiB
Duration                    : 1 h 36 min
Overall bit rate mode       : Variable
Overall bit rate            : 1 020 kb/s
Encoded date                : UTC 2018-02-19 20:47:25
Tagged date                 : UTC 2018-02-19 20:47:25
gsst                        : 0
gstd                        : 5813138

Video
ID                          : 1
Format                      : AVC
Format/Info                 : Advanced Video Codec
Format profile              : Main@L3.1
Format settings, CABAC      : Yes
Format settings, RefFrames  : 3 frames
Codec ID                    : avc1
Codec ID/Info               : Advanced Video Coding
Duration                    : 1 h 36 min
Bit rate                    : 890 kb/s
Width                       : 1 280 pixels
Height                      : 720 pixels
Display aspect ratio        : 16:9
Frame rate mode             : Constant
Frame rate                  : 25.000 FPS
Color space                 : YUV
Chroma subsampling          : 4:2:0
Bit depth                   : 8 bits
Scan type                   : Progressive
Bits/(Pixel*Frame)          : 0.039
Stream size                 : 617 MiB (87%)
Title                       : ISO Media file produced by Google Inc. Created on: 02/19/2018.
Encoded date                : UTC 2018-02-19 20:47:25
Tagged date                 : UTC 2018-02-19 20:47:25
Color range                 : Limited
Color primaries             : BT.709
Transfer characteristics    : BT.709
Matrix coefficients         : BT.709

Audio
ID                          : 2
Format                      : AAC
Format/Info                 : Advanced Audio Codec
Format profile              : LC
Codec ID                    : 40
Duration                    : 1 h 36 min
Bit rate mode               : Variable
Bit rate                    : 126 kb/s
Channel(s)                  : 2 channels
Channel positions           : Front: L R
Sampling rate               : 44.1 kHz
Frame rate                  : 43.066 FPS (1024 SPF)
Compression mode            : Lossy
Stream size                 : 87.0 MiB (12%)
Title                       : ISO Media file produced by Google Inc. Created on: 02/19/2018.
Encoded date                : UTC 2018-02-19 20:47:25
Tagged date                 : UTC 2018-02-19 20:47:25


ImageImageImage

SINGLE DIRECT FAST LINKS
Code:
https://www.heroupload.com/9fd139e9e57532d8/Sabse.Bada.Zero-Luck.Unnodu.2)018.Hindi.WEB-HD.AVC.AAC-GM.MP4


Code:
http://filefloater.com/4yf/Sabse.Bada.Zero-Luck.Unnodu.2)018.Hindi.WEB-HD.AVC.AAC-GM.MP4




[/CENTER]


Top
 Profile  
 

Display posts from previous:  Sort by  
Post new topic Reply to topic  [ 1 post ] 

All times are UTC [ DST ]

 


Related Topics

Who is online

Users browsing this forum: No registered users and 5 guests


You cannot post new topics in this forum
You cannot reply to topics in this forum
You cannot edit your posts in this forum
You cannot delete your posts in this forum
You cannot post attachments in this forum

Search for:
Jump to: